Details for this torrent 


Type SE
Warning! Use a VPN When Downloading Torrents!
Your ISP is tracking your torrent activity Including your IP Address and your Location!
We strongly recommend using ExpressVPN to anonymize your torrenting. 30 Day Money Back Guarantee!
HIDE MY IP
The Big Bang Theory Season 12. revittony
Type:
Video > TV shows
Files:
25
Size:
3.43 GiB (3685987569 Bytes)
Info:
IMDB
Tag(s):
tt0898266
Uploaded:
2019-05-17 12:31:48 GMT
By:
revittony1 Trusted
Seeders:
298
Leechers:
96
Comments
0  

Info Hash:
87C7B0B6ABC49ED1AF6ED19F972949FB84CEE276







(Problems with magnets links are fixed by upgrading your torrent client!)
 https://www.imdb.com/title/tt0898266Format : Matroska Format version : Version 4 Overall bit rate : 1 096 kb/s Encoded date : UTC 2018-09-25 00:41:10 Writing application : mkvmerge v8.8.0 ('Wind at my back') 64bit Writing library : libebml v1.3.3 + libmatroska v1.4.4 Video ID : 1 Format : AVC Format/Info : Advanced Video Codec Format profile : [email protected] Format settings : CABAC / 5 Ref Frames Format settings, CABAC : Yes Format settings, Reference frames : 5 frames Codec ID : V_MPEG4/ISO/AVC Duration : 20 min 1 s Bit rate : 977 kb/s Width : 720 pixels Height : 404 pixels Display aspect ratio : 16:9 Frame rate mode : Constant Frame rate : 23.976 (24000/1001) FPS Color space : YUV Chroma subsampling : 4:2:0 Bit depth : 8 bits Scan type : Progressive Bits/(Pixel*Frame) : 0.140 Stream size : 140 MiB (89%) Writing library : x264 core 155 r2901 7d0ff22 Default : Yes Forced : No Color range : Limited Matrix coefficients : BT.709 Audio ID : 2 Format : AAC LC Format/Info : Advanced Audio Codec Low Complexity Codec ID : A_AAC-2 Duration : 20 min 1 s Bit rate : 117 kb/s Channel(s) : 2 channels Channel layout : L R Sampling rate : 48.0 kHz Frame rate : 46.875 FPS (1024 SPF) Compression mode : Lossy Delay relative to video : 20 ms Stream size : 16.8 MiB (11%) Default : Yes Forced : No




Type SE
Warning! Use a VPN When Downloading Torrents!
Your ISP is tracking your torrent activity Including your IP Address and your Location!
We strongly recommend using ExpressVPN to anonymize your torrenting. 30 Day Money Back Guarantee!
HIDE MY IP

Bitcoin (BTC Only) : 1z8Tep4BNS79W3kYH8CHA8tWj6nuHYcCM
TRON (TRX Only) : 0x705c127743410c23f69e3f56ac0a654879181c41

The Pirate bay proxy List
Pirate bay proxy list